Free Full Download Games Softwares Graphics Movies And Music

 
 
Twistys Download » Music » Haydn - Missen - Bruno Weil (FLAC) (1996)
Menu
Home Applications
Games Movies
Music TV Shows
Graphics Forums
RSS Sitemap
 
Watch Online Movies
Advanced Search
Last News
Trend
Trend
Friend:
Full Download
Nulled Script Download
Torrent Download
onlinemovies

Search In Site

Music : Haydn - Missen - Bruno Weil (FLAC) (1996)
 

Haydn - Missen - Bruno Weil (FLAC) (1996)

Haydn - Missen - Bruno Weil (FLAC) (1996)
EAC Rip | Flac(tracks) - cue - log | 1.48 GB | 5 CD | Full Scans
Genre: Classical


Soloists:
Ann Monoyios - Soprano
Marie-Claude Vallin - Soprano
Monica Groop - Alto
Barbara Holzl - Alto
Svetlana Serdar - Alto
Wolfgang Bunten - Tenor
Jorg Hering - Tenor
Harry van der Kamp - Bass
Tolzer Knabenchor
Tafelmusik
Bruno Weil

Track List:

CD1
REM GENRE Classical
REM DATE 1997
REM DISCID BE11870C
REM COMMENT "ExactAudioCopy v0.95b3"
PERFORMER "Weil, Tafelmusik - T?lzer Knabenchor"
TITLE "Haydn, Theresienmesse & Nelsonmesse"
FILE "[01] Missa in B-flat major, Hob. XXII- 12 'Theresienmesse' - Kyrie- Weil, Tafelmusik - Tolzer Knabenchor.flac" WAVE
TRACK 01 AUDIO
TITLE "Missa in B-flat major, Hob. XXII: 12 'Theresienmesse' - Kyrie"
PERFORMER "Weil, Tafelmusik - T?lzer Knabenchor"
INDEX 01 00:00:00
FILE "[02] Gloria- Weil, Tafelmusik - T?lzer Knabenchor.wav" WAVE
TRACK 02 AUDIO
TITLE "Gloria"
PERFORMER "Weil, Tafelmusik - T?lzer Knabenchor"
INDEX 01 00:00:00
FILE "[03] Credo- Weil, Tafelmusik - T?lzer Knabenchor.wav" WAVE
TRACK 03 AUDIO
TITLE "Credo"
PERFORMER "Weil, Tafelmusik - T?lzer Knabenchor"
INDEX 01 00:00:00
FILE "[04] Santus- Weil, Tafelmusik - T?lzer Knabenchor.wav" WAVE
TRACK 04 AUDIO
TITLE "Santus"
PERFORMER "Weil, Tafelmusik - T?lzer Knabenchor"
INDEX 01 00:00:00
FILE "[05] Benedictus- Weil, Tafelmusik - T?lzer Knabenchor.wav" WAVE
TRACK 05 AUDIO
TITLE "Benedictus"
PERFORMER "Weil, Tafelmusik - T?lzer Knabenchor"
INDEX 01 00:00:00
FILE "[06] Agnus Dei- Weil, Tafelmusik - T?lzer Knabenchor.wav" WAVE
TRACK 06 AUDIO
TITLE "Agnus Dei"
PERFORMER "Weil, Tafelmusik - T?lzer Knabenchor"
INDEX 01 00:00:00
TRACK 07 AUDIO
TITLE "Missa in Angustiis in D minor, Hob. XXII: 11 'Nelsonmesse' - Kyrie"
PERFORMER "Weil, Tafelmusik - T?lzer Knabenchor"
INDEX 00 06:04:40
FILE "[07] Missa in Angustiis in D minor, Hob. XXII- 11 'Nelsonmesse' - Kyrie- Weil, Tafelmusik - T?lzer Knabenchor.wav" WAVE
INDEX 01 00:00:00
FILE "[08] Gloria- Weil, Tafelmusik - T?lzer Knabenchor.wav" WAVE
TRACK 08 AUDIO
TITLE "Gloria"
PERFORMER "Weil, Tafelmusik - T?lzer Knabenchor"
INDEX 01 00:00:00
FILE "[09] Cred- Weil, Tafelmusik - T?lzer Knabenchor.wav" WAVE
TRACK 09 AUDIO
TITLE "Cred"
PERFORMER "Weil, Tafelmusik - T?lzer Knabenchor"
INDEX 01 00:00:00
FILE "[10] Santus- Weil, Tafelmusik - T?lzer Knabenchor.wav" WAVE
TRACK 10 AUDIO
TITLE "Santus"
PERFORMER "Weil, Tafelmusik - T?lzer Knabenchor"
INDEX 01 00:00:00
FILE "[11] Benedictus- Weil, Tafelmusik - T?lzer Knabenchor.wav" WAVE
TRACK 11 AUDIO
TITLE "Benedictus"
PERFORMER "Weil, Tafelmusik - T?lzer Knabenchor"
INDEX 01 00:00:00
FILE "[12] Agnus Dei- Weil, Tafelmusik - T?lzer Knabenchor.wav" WAVE
TRACK 12 AUDIO
TITLE "Agnus Dei"
PERFORMER "Weil, Tafelmusik - T?lzer Knabenchor"
INDEX 01 00:00:0
CD2
REM GENRE Classical
REM DATE 1996
REM DISCID B60E970B
REM COMMENT "ExactAudioCopy v0.95b3"
PERFORMER "Weil, Bruno; Tafelmusik; T?lzer Knabenchor"
TITLE "Joseph Haydn: Paukenmesse"
FILE "[01] Missa in tempore belli, Hob. XXII- 9 'Paukenmesse'- Kyrie- Weil, Bruno; Tafelmusik; T?lzer Knabenchor.wav" WAVE
TRACK 01 AUDIO
TITLE "Missa in tempore belli, Hob. XXII: 9 'Paukenmesse': Kyrie "
PERFORMER "Weil, Bruno; Tafelmusik; T?lzer Knabenchor"
INDEX 01 00:00:00
TRACK 02 AUDIO
TITLE "Missa in tempore belli, Hob. XXII: 9 'Paukenmesse': Gloria"
PERFORMER "Weil, Bruno; Tafelmusik; T?lzer Knabenchor"
INDEX 00 04:34:30
FILE "[02] Missa in tempore belli, Hob. XXII- 9 'Paukenmesse'- Gloria- Weil, Bruno; Tafelmusik; T?lzer Knabenchor.wav" WAVE
INDEX 01 00:00:00
TRACK 03 AUDIO
TITLE "Missa in tempore belli, Hob. XXII: 9 'Paukenmesse': Credo"
PERFORMER "Weil, Bruno; Tafelmusik; T?lzer Knabenchor"
INDEX 00 09:23:15
FILE "[03] Missa in tempore belli, Hob. XXII- 9 'Paukenmesse'- Credo- Weil, Bruno; Tafelmusik; T?lzer Knabenchor.wav" WAVE
INDEX 01 00:00:00
TRACK 04 AUDIO
TITLE "Missa in tempore belli, Hob. XXII: 9 'Paukenmesse': Sanctus"
PERFORMER "Weil, Bruno; Tafelmusik; T?lzer Knabenchor"
INDEX 00 08:49:47
FILE "[04] Missa in tempore belli, Hob. XXII- 9 'Paukenmesse'- Sanctus- Weil, Bruno; Tafelmusik; T?lzer Knabenchor.wav" WAVE
INDEX 01 00:00:00
TRACK 05 AUDIO
TITLE "Missa in tempore belli, Hob. XXII: 9 'Paukenmesse': Benedictus"
PERFORMER "Weil, Bruno; Tafelmusik; T?lzer Knabenchor"
INDEX 00 02:15:55
FILE "[05] Missa in tempore belli, Hob. XXII- 9 'Paukenmesse'- Benedictus- Weil, Bruno; Tafelmusik; T?lzer Knabenchor.wav" WAVE
INDEX 01 00:00:00
TRACK 06 AUDIO
TITLE "Missa in tempore belli, Hob. XXII: 9 'Paukenmesse': Agnus Dei"
PERFORMER "Weil, Bruno; Tafelmusik; T?lzer Knabenchor"
INDEX 00 04:38:37
FILE "[06] Missa in tempore belli, Hob. XXII- 9 'Paukenmesse'- Agnus Dei- Weil, Bruno; Tafelmusik; T?lzer Knabenchor.wav" WAVE
INDEX 01 00:00:00
TRACK 07 AUDIO
TITLE "Salve Regina, Hob. XXIIIb: 2: Salve Regina (Adagio)"
PERFORMER "Weil, Bruno; Tafelmusik; T?lzer Knabenchor"
INDEX 00 05:06:12
FILE "[07] Salve Regina, Hob. XXIIIb- 2- Salve Regina (Adagio)- Weil, Bruno; Tafelmusik; T?lzer Knabenchor.wav" WAVE
INDEX 01 00:00:00
FILE "[08] Salve Regina, Hob. XXIIIb- 2- Eia ergo (Allegro)- Weil, Bruno; Tafelmusik; T?lzer Knabenchor.wav" WAVE
TRACK 08 AUDIO
TITLE "Salve Regina, Hob. XXIIIb: 2: Eia ergo (Allegro)"
PERFORMER "Weil, Bruno; Tafelmusik; T?lzer Knabenchor"
INDEX 01 00:00:00
FILE "[09] Salve Regina, Hob. XXIIIb- 2- Et Jesum (Largo) - O clemens (Allegretto)- Weil, Bruno; Tafelmusik; T?lzer Knabenchor.wav" WAVE
TRACK 09 AUDIO
TITLE "Salve Regina, Hob. XXIIIb: 2: Et Jesum (Largo) - O clemens (Allegretto)"
PERFORMER "Weil, Bruno; Tafelmusik; T?lzer Knabenchor"
INDEX 01 00:00:00
TRACK 10 AUDIO
TITLE "Motetto 'O coelitum beati', Hob. XXIIIa: G 9: Aria: O coelitum beati amores"
PERFORMER "Weil, Bruno; Tafelmusik; T?lzer Knabenchor"
INDEX 00 05:31:73
FILE "[10] Motetto 'O coelitum beati', Hob. XXIIIa- G 9- Aria- O coelitum beati amores- Weil, Bruno; Tafelmusik; T?lzer Knabenchor.wav" WAVE
INDEX 01 00:00:00
FILE "[11] Motetto 'O coelitum beati', Hob. XXIIIa- G 9- Chorus- Alleluja- Weil, Bruno; Tafelmusik; T?lzer Knabenchor.wav" WAVE
TRACK 11 AUDIO
TITLE "Motetto 'O coelitum beati', Hob. XXIIIa: G 9: Chorus: Alleluja"
PERFORMER "Weil, Bruno; Tafelmusik; T?lzer Knabenchor"
INDEX 01 00:00:00
CD3
REM DISCID A311C90C
REM COMMENT "ExactAudioCopy v0.95b3"
PERFORMER "Unknown Artist"
TITLE "Unknown Title"
FILE "[01] Track01- Unknown Artist.wav" WAVE
TRACK 01 AUDIO
TITLE "Track01"
PERFORMER "Unknown Artist"
INDEX 01 00:00:00
FILE "[02] Track02- Unknown Artist.wav" WAVE
TRACK 02 AUDIO
TITLE "Track02"
PERFORMER "Unknown Artist"
INDEX 01 00:00:00
FILE "[03] Track03- Unknown Artist.wav" WAVE
TRACK 03 AUDIO
TITLE "Track03"
PERFORMER "Unknown Artist"
INDEX 01 00:00:00
FILE "[04] Track04- Unknown Artist.wav" WAVE
TRACK 04 AUDIO
TITLE "Track04"
PERFORMER "Unknown Artist"
INDEX 01 00:00:00
FILE "[05] Track05- Unknown Artist.wav" WAVE
TRACK 05 AUDIO
TITLE "Track05"
PERFORMER "Unknown Artist"
INDEX 01 00:00:00
FILE "[06] Track06- Unknown Artist.wav" WAVE
TRACK 06 AUDIO
TITLE "Track06"
PERFORMER "Unknown Artist"
INDEX 01 00:00:00
TRACK 07 AUDIO
TITLE "Track07"
PERFORMER "Unknown Artist"
INDEX 00 06:25:42
FILE "[07] Track07- Unknown Artist.wav" WAVE
INDEX 01 00:00:00
FILE "[08] Track08- Unknown Artist.wav" WAVE
TRACK 08 AUDIO
TITLE "Track08"
PERFORMER "Unknown Artist"
INDEX 01 00:00:00
FILE "[09] Track09- Unknown Artist.wav" WAVE
TRACK 09 AUDIO
TITLE "Track09"
PERFORMER "Unknown Artist"
INDEX 01 00:00:00
FILE "[10] Track10- Unknown Artist.wav" WAVE
TRACK 10 AUDIO
TITLE "Track10"
PERFORMER "Unknown Artist"
INDEX 01 00:00:00
FILE "[11] Track11- Unknown Artist.wav" WAVE
TRACK 11 AUDIO
TITLE "Track11"
PERFORMER "Unknown Artist"
INDEX 01 00:00:00
FILE "[12] Track12- Unknown Artist.wav" WAVE
TRACK 12 AUDIO
TITLE "Track12"
PERFORMER "Unknown Artist"
INDEX 01 00:00:0
CD4
REM GENRE Classical
REM DATE 1995
REM DISCID BC0EC20E
REM COMMENT "ExactAudioCopy v0.95b3"
PERFORMER "Weil, Tafelmusik - T?lzer Knabenchor"
TITLE "Haydn, Missa St. Bernardi 'Heiligmesse' "
FILE "[01] Missa Sancti Bernardi de Offida, Hob. XXII- 10 'Heiligmesse' - Kyrie- Weil, Tafelmusik - T?lzer Knabenchor.wav" WAVE
TRACK 01 AUDIO
TITLE "Missa Sancti Bernardi de Offida, Hob. XXII: 10 'Heiligmesse' - Kyrie"
PERFORMER "Weil, Tafelmusik - T?lzer Knabenchor"
INDEX 01 00:00:00
TRACK 02 AUDIO
TITLE "Gloria"
PERFORMER "Weil, Tafelmusik - T?lzer Knabenchor"
INDEX 00 04:07:45
FILE "[02] Gloria- Weil, Tafelmusik - T?lzer Knabenchor.wav" WAVE
INDEX 01 00:00:00
TRACK 03 AUDIO
TITLE "Credo"
PERFORMER "Weil, Tafelmusik - T?lzer Knabenchor"
INDEX 00 07:47:23
FILE "[03] Credo- Weil, Tafelmusik - T?lzer Knabenchor.wav" WAVE
INDEX 01 00:00:00
TRACK 04 AUDIO
TITLE "Sanctus"
PERFORMER "Weil, Tafelmusik - T?lzer Knabenchor"
INDEX 00 08:27:10
FILE "[04] Sanctus- Weil, Tafelmusik - T?lzer Knabenchor.wav" WAVE
INDEX 01 00:00:00
FILE "[05] Benedictus- Weil, Tafelmusik - T?lzer Knabenchor.wav" WAVE
TRACK 05 AUDIO
TITLE "Benedictus"
PERFORMER "Weil, Tafelmusik - T?lzer Knabenchor"
INDEX 01 00:00:00
TRACK 06 AUDIO
TITLE "Agnus Dei"
PERFORMER "Weil, Tafelmusik - T?lzer Knabenchor"
INDEX 00 04:17:48
FILE "[06] Agnus Dei- Weil, Tafelmusik - T?lzer Knabenchor.wav" WAVE
INDEX 01 00:00:00
TRACK 07 AUDIO
TITLE "Mare Clausum, Hob. XXIVa: 9 Aria: 'Nor Can I Think My Suit Is Vain'"
PERFORMER "Weil, Tafelmusik - T?lzer Knabenchor"
INDEX 00 05:15:40
FILE "[07] Mare Clausum, Hob. XXIVa- 9 Aria- 'Nor Can I Think My Suit Is Vain'- Weil, Tafelmusik - T?lzer Knabenchor.wav" WAVE
INDEX 01 00:00:00
FILE "[08] Chorus- 'Thy Great Endeavors'- Weil, Tafelmusik - T?lzer Knabenchor.wav" WAVE
TRACK 08 AUDIO
TITLE "Chorus: 'Thy Great Endeavors'"
PERFORMER "Weil, Tafelmusik - T?lzer Knabenchor"
INDEX 01 00:00:00
TRACK 09 AUDIO
TITLE "Motetto 'Insanae Et Vanae Curae', Hob. XXI: 1 No.13c"
PERFORMER "Weil, Tafelmusik - T?lzer Knabenchor"
INDEX 00 03:24:25
FILE "[09] Motetto 'Insanae Et Vanae Curae', Hob. XXI- 1 No.13c- Weil, Tafelmusik - T?lzer Knabenchor.wav" WAVE
INDEX 01 00:00:00
TRACK 10 AUDIO
TITLE "Motetti de Venerabili Sacramento, Hob. XXIIIc: 5a-d - 'Lauda Scion'"
PERFORMER "Weil, Tafelmusik - T?lzer Knabenchor"
INDEX 00 06:05:42
FILE "[10] Motetti de Venerabili Sacramento, Hob. XXIIIc- 5a-d - 'Lauda Scion'- Weil, Tafelmusik - T?lzer Knabenchor.wav" WAVE
INDEX 01 00:00:00
TRACK 11 AUDIO
TITLE "'Ecce Panis'"
PERFORMER "Weil, Tafelmusik - T?lzer Knabenchor"
INDEX 00 02:44:50
FILE "[11] 'Ecce Panis'- Weil, Tafelmusik - T?lzer Knabenchor.wav" WAVE
INDEX 01 00:00:00
TRACK 12 AUDIO
TITLE "'In Figuris'"
PERFORMER "Weil, Tafelmusik - T?lzer Knabenchor"
INDEX 00 02:43:12
FILE "[12] 'In Figuris'- Weil, Tafelmusik - T?lzer Knabenchor.wav" WAVE
INDEX 01 00:00:00
TRACK 13 AUDIO
TITLE "'Bone Pastor'"
PERFORMER "Weil, Tafelmusik - T?lzer Knabenchor"
INDEX 00 02:20:20
FILE "[13] 'Bone Pastor'- Weil, Tafelmusik - T?lzer Knabenchor.wav" WAVE
INDEX 01 00:00:00
TRACK 14 AUDIO
TITLE "Te Deum For The Empress Marie Therese, Hob. XXIIIc: 2"
PERFORMER "Weil, Tafelmusik - T?lzer Knabenchor"
INDEX 00 02:54:15
FILE "[14] Te Deum For The Empress Marie Therese, Hob. XXIIIc- 2- Weil, Tafelmusik - T?lzer Knabenchor.wav" WAVE
INDEX 01 00:00:0
CD5
REM GENRE Classical
REM DATE 1994
REM DISCID 0F0DF914
REM COMMENT "ExactAudioCopy v0.95b3"
PERFORMER "Joseph Haydn"
TITLE "Sacred Music"
FILE "[01] Missa 'Sunt bona mixta malis', Hob. XXII- 2 - Kyrie- Joseph Haydn.wav" WAVE
TRACK 01 AUDIO
TITLE "Missa 'Sunt bona mixta malis', Hob. XXII: 2 - Kyrie"
PERFORMER "Joseph Haydn"
INDEX 01 00:00:00
FILE "[02] Missa 'Sunt bona mixta malis', Hob. XXII- 2 - Gloria- Joseph Haydn.wav" WAVE
TRACK 02 AUDIO
TITLE "Missa 'Sunt bona mixta malis', Hob. XXII: 2 - Gloria"
PERFORMER "Joseph Haydn"
INDEX 01 00:00:00
TRACK 03 AUDIO
TITLE "Non nobis, Domine, Hob. XIIIa: 1"
PERFORMER "Joseph Haydn"
INDEX 00 03:30:50
FILE "[03] Non nobis, Domine, Hob. XIIIa- 1- Joseph Haydn.wav" WAVE
INDEX 01 00:00:00
TRACK 04 AUDIO
TITLE "Ave Regina, Hob. XIIIb: 3"
PERFORMER "Joseph Haydn"
INDEX 00 02:32:57
FILE "[04] Ave Regina, Hob. XIIIb- 3- Joseph Haydn.wav" WAVE
INDEX 01 00:00:00
TRACK 05 AUDIO
TITLE "Responsoria de Venerabili, Hob. XXIIIc - Lauda Sion"
PERFORMER "Joseph Haydn"
INDEX 00 10:03:70
FILE "[05] Responsoria de Venerabili, Hob. XXIIIc - Lauda Sion- Joseph Haydn.wav" WAVE
INDEX 01 00:00:00
FILE "[06] Responsoria de Venerabili, Hob. XXIIIc - Laudis thema specialis- Joseph Haydn.wav" WAVE
TRACK 06 AUDIO
TITLE "Responsoria de Venerabili, Hob. XXIIIc - Laudis thema specialis"
PERFORMER "Joseph Haydn"
INDEX 01 00:00:00
FILE "[07] Responsoria de Venerabili, Hob. XXIIIc - Sit laus plena- Joseph Haydn.wav" WAVE
TRACK 07 AUDIO
TITLE "Responsoria de Venerabili, Hob. XXIIIc - Sit laus plena"
PERFORMER "Joseph Haydn"
INDEX 01 00:00:00
FILE "[08] Responsoria de Venerabili, Hob. XXIIIc - Quod in coena- Joseph Haydn.wav" WAVE
TRACK 08 AUDIO
TITLE "Responsoria de Venerabili, Hob. XXIIIc - Quod in coena"
PERFORMER "Joseph Haydn"
INDEX 01 00:00:00
TRACK 09 AUDIO
TITLE "Libera me, Hob. XXIIb: 1"
PERFORMER "Joseph Haydn"
INDEX 00 02:22:62
FILE "[09] Libera me, Hob. XXIIb- 1- Joseph Haydn.wav" WAVE
INDEX 01 00:00:00
TRACK 10 AUDIO
TITLE "Salve Regina, Hob. XXIIIb: 1 - Salve Regina"
PERFORMER "Joseph Haydn"
INDEX 00 03:51:52
FILE "[10] Salve Regina, Hob. XXIIIb- 1 - Salve Regina- Joseph Haydn.wav" WAVE
INDEX 01 00:00:00
FILE "[11] Salve Regina, Hob. XXIIIb- 1 - Ad te clamamus- Joseph Haydn.wav" WAVE
TRACK 11 AUDIO
TITLE "Salve Regina, Hob. XXIIIb: 1 - Ad te clamamus"
PERFORMER "Joseph Haydn"
INDEX 01 00:00:00
FILE "[12] Salve Regina, Hob. XXIIIb- 1 - Eia ergo- Joseph Haydn.wav" WAVE
TRACK 12 AUDIO
TITLE "Salve Regina, Hob. XXIIIb: 1 - Eia ergo"
PERFORMER "Joseph Haydn"
INDEX 01 00:00:00
FILE "[13] Salve Regina, Hob. XXIIIb- 1 - Et Jesum benedictum- Joseph Haydn.wav" WAVE
TRACK 13 AUDIO
TITLE "Salve Regina, Hob. XXIIIb: 1 - Et Jesum benedictum"
PERFORMER "Joseph Haydn"
INDEX 01 00:00:00
FILE "[14] Salve Regina, Hob. XXIIIb- 1 - O clemens, o pia- Joseph Haydn.wav" WAVE
TRACK 14 AUDIO
TITLE "Salve Regina, Hob. XXIIIb: 1 - O clemens, o pia"
PERFORMER "Joseph Haydn"
INDEX 01 00:00:00
TRACK 15 AUDIO
TITLE "Missa Brevis Sancti Joannis de Deo 'Kleine Orgelmesse', Hob. XXII: 7 - Kyrie"
PERFORMER "Joseph Haydn"
INDEX 00 03:19:53
FILE "[15] Missa Brevis Sancti Joannis de Deo 'Kleine Orgelmesse', Hob. XXII- 7 - Kyrie- Joseph Haydn.wav" WAVE
INDEX 01 00:00:00
FILE "[16] Missa Brevis Sancti Joannis de Deo 'Kleine Orgelmesse', Hob. XXII- 7 - Gloria- Joseph Haydn.wav" WAVE
TRACK 16 AUDIO
TITLE "Missa Brevis Sancti Joannis de Deo 'Kleine Orgelmesse', Hob. XXII: 7 - Gloria"
PERFORMER "Joseph Haydn"
INDEX 01 00:00:00
FILE "[17] Missa Brevis Sancti Joannis de Deo 'Kleine Orgelmesse', Hob. XXII- 7 - Credo- Joseph Haydn.wav" WAVE
TRACK 17 AUDIO
TITLE "Missa Brevis Sancti Joannis de Deo 'Kleine Orgelmesse', Hob. XXII: 7 - Credo"
PERFORMER "Joseph Haydn"
INDEX 01 00:00:00
FILE "[18] Missa Brevis Sancti Joannis de Deo 'Kleine Orgelmesse', Hob. XXII- 7 - Sanctus- Joseph Haydn.wav" WAVE
TRACK 18 AUDIO
TITLE "Missa Brevis Sancti Joannis de Deo 'Kleine Orgelmesse', Hob. XXII: 7 - Sanctus"
PERFORMER "Joseph Haydn"
INDEX 01 00:00:00
FILE "[19] Missa Brevis Sancti Joannis de Deo 'Kleine Orgelmesse', Hob. XXII- 7 - Benedictus- Joseph Haydn.wav" WAVE
TRACK 19 AUDIO
TITLE "Missa Brevis Sancti Joannis de Deo 'Kleine Orgelmesse', Hob. XXII: 7 - Benedi..."
PERFORMER "Joseph Haydn"
INDEX 01 00:00:00
FILE "[20] Missa Brevis Sancti Joannis de Deo 'Kleine Orgelmesse', Hob. XXII- 7 - Agnus Dei- Joseph Haydn.wav" WAVE
TRACK 20 AUDIO
TITLE "Missa Brevis Sancti Joannis de Deo 'Kleine Orgelmesse', Hob. XXII: 7 - Agnus Dei"
PERFORMER "Joseph Haydn"
INDEX 01 00:00:00

Download links:


Download(Wupload):
http://www.wupload.com/file/126797460/0827b_Haydn_Missen.part5.rar
http://www.wupload.com/file/126793828/0827b_Haydn_Missen.part4.rar
http://www.wupload.com/file/126793842/0827b_Haydn_Missen.part1.rar
http://www.wupload.com/file/126787087/0827b_Haydn_Missen.part2.rar
http://www.wupload.com/file/126787146/0827b_Haydn_Missen.part3.rar
http://www.wupload.com/file/126787208/0827b_Haydn_Missen.part6.rar
http://www.wupload.com/file/126776666/0827b_Haydn_Missen.part7.rar

Download(FileSonic):
http://www.filesonic.com/file/1780463004/0827b_Haydn_Missen.part1.rar
http://www.filesonic.com/file/1780463014/0827b_Haydn_Missen.part2.rar
http://www.filesonic.com/file/1780463044/0827b_Haydn_Missen.part3.rar
http://www.filesonic.com/file/1780463034/0827b_Haydn_Missen.part4.rar
http://www.filesonic.com/file/1780464044/0827b_Haydn_Missen.part5.rar
http://www.filesonic.com/file/1780464054/0827b_Haydn_Missen.part6.rar
http://www.filesonic.com/file/1780462364/0827b_Haydn_Missen.part7.rar

Download(FileServe):
http://www.fileserve.com/file/q7gDk3s/0827b_Haydn_Missen.part1.rar
http://www.fileserve.com/file/uWncECW/0827b_Haydn_Missen.part2.rar
http://www.fileserve.com/file/Pgr4NaY/0827b_Haydn_Missen.part3.rar
http://www.fileserve.com/file/UyEPukC/0827b_Haydn_Missen.part4.rar
http://www.fileserve.com/file/XfagnPS/0827b_Haydn_Missen.part5.rar
http://www.fileserve.com/file/UDWTYFg/0827b_Haydn_Missen.part6.rar
http://www.fileserve.com/file/awp8rGH/0827b_Haydn_Missen.part7.rar


Haydn - Missen - Bruno Weil (FLAC) (1996) Fast Download


 
 
 
Dear visitor, you went to the site as an unregistered user. We encourage you to register or enter the site under your name.
 
   
 
 (Votes #: 0)
 
 

This site does not store any file on its server.
If you have any doubts about legality of content or you have another suspicions, feel free to Contact US.