Free Full Download Games Softwares Graphics Movies And Music

 
 
Twistys Download » Movies » How To Be Single (2016) 1080p Web-dl Dd5 1 H264-rbg
Menu
Home Applications
Games Movies
Music TV Shows
Graphics Forums
RSS Sitemap
 
Advanced Search
Last News
Trend
Trend
Friend:
Full Download
Nulled Script Download
Apk Download

Search In Site

Movies : How To Be Single (2016) 1080p Web-dl Dd5 1 H264-rbg
 
How To Be Single (2016) 1080p Web-dl Dd5 1 H264-rbg

How To Be Single (2016) 1080p Web-dl Dd5 1 H264-rbg
INFO : http://www.imdb.com/title/tt1292566/

General
Format : Matroska
Format version : Version 4 / Version 2
File size : 3.77 GiB
Duration : 1h 49mn
Overall bit rate : 4 912 Kbps
Movie name : RARBG.COM - How.to.Be.Single.2016.1080p.WEB-DL.DD5.1.H264-RARBG
Encoded date : UTC 2016-05-03 05:05:29
Writing application : mkvmerge v9.1.0 ('Little Earthquakes') 64bit
Writing library : libebml v1.3.3 + libmatroska v1.4.4

Video
ID : 1
Format : AVC
Format/Info : Advanced Video Codec
Format profile : [email protected]
Format settings, CABAC : Yes
Format settings, ReFrames : 5 frames
Codec ID : V_MPEG4/ISO/AVC
Duration : 1h 49mn
Bit rate : 4 431 Kbps
Width : 1 916 pixels
Height : 796 pixels
Display aspect ratio : 2.40:1
Frame rate mode : Constant
Frame rate : 23.976 fps
Color space : YUV
Chroma subsampling : 4:2:0
Bit depth : 8 bits
Scan type : Progressive
Bits/(Pixel*Frame) : 0.121
Stream size : 3.40 GiB (90%)
Title : How.to.Be.Single.2016.1080p.WEB-DL.DD5.1.H264-RARBG
Language : English

Audio
ID : 2
Format : AC-3
Format/Info : Audio Coding 3
Mode extension : CM (complete main)
Format settings, Endianness : Big
Codec ID : A_AC3
Duration : 1h 49mn
Bit rate mode : Constant
Bit rate : 384 Kbps
Channel(s) : 6 channels
Channel positions : Front: L C R, Side: L R, LFE
Sampling rate : 48.0 KHz
Bit depth : 16 bits
Compression mode : Lossy
Stream size : 302 MiB (8%)
Title : How.to.Be.Single.2016.1080p.WEB-DL.DD5.1.H264-RARBG
Language : English

Text
ID : 3
Format : UTF-8
Codec ID : S_TEXT/UTF8
Codec ID/Info : UTF-8 Plain Text
Language : English


How To Be Single (2016) 1080p Web-dl Dd5 1 H264-rbg

How To Be Single (2016) 1080p Web-dl Dd5 1 H264-rbg

DOWNLOAD LINK
Get Unlimited Speed with Premium Account - Get it From Below Link

http://nitroflare.com/view/A5A2944C55EDD67/How.to.Be.Single.2016.1080p.WEB-DL.DD5.1.H264-RARBG.mkv

(Single Extraction - No password)




.

How To Be Single (2016) 1080p Web-dl Dd5 1 H264-rbg Fast Download


 
 
 
Dear visitor, you went to the site as an unregistered user. We encourage you to register or enter the site under your name.
 
   
 
 (Votes #: 0)
 
 

This site does not store any file on its server.
If you have any doubts about legality of content or you have another suspicions, feel free to Contact US.