Free Full Download Games Softwares Graphics Movies And Music

 
 
Twistys Download » Movies » Miss Teacher (2015) 1080p - Web-hd - X264 - Aac - Team Ictv Exclusive
Menu
Home Applications
Games Movies
Music TV Shows
Graphics Forums
RSS Sitemap
 
Advanced Search
Last News
Trend
Trend
Friend:
Full Download
Nulled Script Download
Torrent Download

Search In Site

Movies : Miss Teacher (2015) 1080p - Web-hd - X264 - Aac - Team Ictv Exclusive
 
Miss Teacher (2015) 1080p - Web-hd - X264 - Aac - Team Ictv Exclusive

Miss Teacher (2015) 1080p - Web-hd - X264 - Aac - Team Ictv Exclusive


Format : MPEG-4
Format profile : Base Media
Codec ID : isom
File size : 2.34 GiB
Duration : 2h 2mn
Overall bit rate : 2 733 Kbps
Writing application : Lavf55.36.103

Video
ID : 1
Format : AVC
Format/Info : Advanced Video Codec
Format profile : [email protected]
Format settings, CABAC : Yes
Format settings, ReFrames : 2 frames
Codec ID : avc1
Codec ID/Info : Advanced Video Coding
Duration : 2h 2mn
Bit rate : 2 601 Kbps
Width : 1 920 pixels
Height : 1 080 pixels
Display aspect ratio : 16:9
Frame rate mode : Constant
Frame rate : 25.000 fps
Color space : YUV
Chroma subsampling : 4:2:0
Bit depth : 8 bits
Scan type : Progressive
Bits/(Pixel*Frame) : 0.050
Stream size : 2.23 GiB (95%)
Color primaries : BT.709
Transfer characteristics : BT.709
Matrix coefficients : BT.709
Color range : Limited

Audio
ID : 2
Format : AAC
Format/Info : Advanced Audio Codec
Format profile : LC
Codec ID : 40
Duration : 2h 2mn
Bit rate mode : Constant
Bit rate : 126 Kbps
Channel(s) : 2 channels
Channel positions : Front: L R
Sampling rate : 44.1 KHz
Compression mode : Lossy
Stream size : 110 MiB (5%)


Miss Teacher (2015) 1080p - Web-hd - X264 - Aac - Team Ictv Exclusive


Miss Teacher (2015) 1080p - Web-hd - X264 - Aac - Team Ictv Exclusive

Miss Teacher (2015) 1080p - Web-hd - X264 - Aac - Team Ictv Exclusive


DOWNLOAD LINK
Get Unlimited Speed with Premium Account - Get it From Below Link

Miss.Teacher.2015.1080p.WEB-HD.AVC.AAC-Team.IcTv.Exclusive.mp4


(Single Extraction - No password)




.

Miss Teacher (2015) 1080p - Web-hd - X264 - Aac - Team Ictv Exclusive Fast Download


 
 
 
Dear visitor, you went to the site as an unregistered user. We encourage you to register or enter the site under your name.
 
   
 
 (Votes #: 0)
 
 

This site does not store any file on its server.
If you have any doubts about legality of content or you have another suspicions, feel free to Contact US.