Free Full Download Games Softwares Graphics Movies And Music

 
 
Twistys Download » Movies » Dead Man Down (2013) CAM XViD FANTA
Menu
Home Applications
Games Movies
Music TV Shows
Graphics Forums
RSS Sitemap
 
Advanced Search
Last News
Trend
Trend
Friend:
Full Download
Nulled Script Download
Torrent Download

Search In Site

Movies : Dead Man Down (2013) CAM XViD FANTA
 
Dead Man Down (2013) CAM XViD FANTA Dead Man Down (2013) CAM XViD FANTA |677.60 MB
IMDB In New York City, a crime lord's right-hand man is seduced by a woman seeking retribution. Director: Niels Arden Oplev Writer:J.H. Wyman Stars: Colin Farrell, Noomi Rapace, Terrence Howard Genres:Action | Crime | Drama | Thriller Country:USA Format : AVI Format/Info : Audio Video Interleave Format profile : OpenDML Format settings : rec File size : 655 MiB Duration : 1h 30mn Overall bit rate : 1 017 Kbps Writing application : AVI-Mux GUI 1.17.8.3, Feb 16 201019:42:50 Video ID : 0 Format : MPEG-4 Visual Format profile : Advanced [email protected] Format settings, BVOP : 1 Format settings, QPel : No Format settings, GMC : No warppoints Format settings, Matrix : Default (H.263) Muxing mode : Packed bitstream Codec ID : XVID Codec ID/Hint : XviD Duration : 1h 30mn Bit rate : 820 Kbps Width : 720 pixels Height : 304 pixels Display aspect ratio : 2.35:1 Frame rate : 25.000 fps Color space : YUV Chroma subsampling : 4:2:0 Bit depth : 8 bits Scan type : Progressive Compression mode : Lossy Bits/(Pixel*Frame) : 0.150 Stream size : 528 MiB (81%) Writing library : XviD 64 Audio ID : 1 Format : AC-3 Format/Info : Audio Coding 3 Mode extension : CM (complete main) Format settings, Endianness : Big Codec ID : 2000 Duration : 1h 30mn Bit rate mode : Constant Bit rate : 192 Kbps Channel(s) : 2 channels Channel positions : Front: L R Sampling rate : 48.0 KHz Bit depth : 16 bits Compression mode : Lossy Stream size : 124 MiB (19%) Alignment : Aligned on interleaves Interleave, duration : 64 ms (1.60 video frames) Interleave, preload duration : 192 ms Title : Dead Man Down-AUDIO Dead Man Down (2013) CAM XViD FANTA Dead Man Down (2013) CAM XViD FANTA Dead Man Down (2013) CAM XViD FANTA
Dead Man Down (2013) CAM XViD FANTA Buy a Premium Account Ryushare , Rapidgator or uploaded = Max Speed RAPIDGATOR http://rapidgator.net/file/a4c5a9b158f934512bf12cefef99b435/Dead.Man.Down.2013.CAM.XViD-FANTA.part2.rar.html http://rapidgator.net/file/ced46724a45c7361292c71dd562a254f/Dead.Man.Down.2013.CAM.XViD-FANTA.part1.rar.html UPLOADED http://uploaded.net/file/aa7qgz5z/Dead.Man.Down.2013.CAM.XViD-FANTA.part1.rar http://uploaded.net/file/k2cqmuoz/Dead.Man.Down.2013.CAM.XViD-FANTA.part2.rar SECUREUPLOAD http://www.secureupload.eu/40sk0h1wxesp/Dead.Man.Down.2013.CAM.XViD-FANTA.part1.rar http://www.secureupload.eu/nc5fjxpkw9pr/Dead.Man.Down.2013.CAM.XViD-FANTA.part2.rar

Dead Man Down (2013) CAM XViD FANTA Fast Download


 
 
 
Dear visitor, you went to the site as an unregistered user. We encourage you to register or enter the site under your name.
 
   
 
 (Votes #: 2)
 
 

This site does not store any file on its server.
If you have any doubts about legality of content or you have another suspicions, feel free to Contact US.