Free Full Download Games Softwares Graphics Movies And Music

 
 
Twistys Download » Movies » Iron Man 3 (2013) R6 CAM AUDiO READNFO XViD V2 - JUSTiCE
Menu
Home Applications
Games Movies
Music TV Shows
Graphics Forums
RSS Sitemap
 
Advanced Search
Last News
Trend
Trend
Friend:
Full Download
Nulled Script Download
Torrent Download

Search In Site

Movies : Iron Man 3 (2013) R6 CAM AUDiO READNFO XViD V2 - JUSTiCE
 
Iron Man 3 (2013) R6 CAM AUDiO READNFO XViD V2 - JUSTiCE Iron Man 3 (2013) R6 CAM AUDiO READNFO XViD V2 - JUSTiCE| 1.79GB
IMDB Language: English 02:08:48 | 720x304 | XviD - 1810Kbps | 29.970fps | MP3 - 128Kbps | 1.79B Genre: Action | Sci-Fi | Thriller
Stars: Robert Downey Jr., Gwyneth Paltrow, Guy Pearce INFO : Video ID : 0 Format : MPEG-4 Visual Format profile : Advanced [email protected] Format settings, BVOP : 2 Format settings, QPel : No Format settings, GMC : No warppoints Format settings, Matrix : Default (MPEG) Muxing mode : Packed bitstream Codec ID : XVID Codec ID/Hint : XviD Duration : 2h 8mn Bit rate : 1 810 Kbps Width : 720 pixels Height : 304 pixels Display aspect ratio : 2.35:1 Frame rate : 29.970 fps Color space : YUV Chroma subsampling : 4:2:0 Bit depth : 8 bits Scan type : Progressive Compression mode : Lossy Bits/(Pixel*Frame) : 0.276 Stream size : 1.63 GiB (93%) Writing library : XviD 64 Audio ID : 1 Format : MPEG Audio Format version : Version 1 Format profile : Layer 3 Mode : Joint stereo Mode extension : MS Stereo Codec ID : 55 Codec ID/Hint : MP3 Duration : 2h 8mn Bit rate mode : Constant Bit rate : 128 Kbps Channel(s) : 2 channels Sampling rate : 48.0 KHz Compression mode : Lossy Delay relative to video : 10ms Stream size : 118 MiB (7%) Alignment : Split accross interleaves Interleave, duration : 33 ms (1.00 video frame) Interleave, preload duration : 500 ms Iron Man 3 (2013) R6 CAM AUDiO READNFO XViD V2 - JUSTiCE Iron Man 3 (2013) R6 CAM AUDiO READNFO XViD V2 - JUSTiCE Iron Man 3 (2013) R6 CAM AUDiO READNFO XViD V2 - JUSTiCE Iron Man 3 (2013) R6 CAM AUDiO READNFO XViD V2 - JUSTiCE Iron Man 3 (2013) R6 CAM AUDiO READNFO XViD V2 - JUSTiCE Iron Man 3 (2013) R6 CAM AUDiO READNFO XViD V2 - JUSTiCE
Iron Man 3 (2013) R6 CAM AUDiO READNFO XViD V2 - JUSTiCE Buy a Premium Account Ryushare , Rapidgator or uploaded = Max Speed RAPIDGATOR http://rapidgator.net/file/ca290b2ff0983df669339cb892ecab38/Iron.Man.3.2013.R6.CAM.AUDiO.READNFO.XViDv2.JUSTiCE.part1.rar.html http://rapidgator.net/file/3650285b538e22d3cb0e21cbea5bfc15/Iron.Man.3.2013.R6.CAM.AUDiO.READNFO.XViDv2.JUSTiCE.part2.rar.html http://rapidgator.net/file/2247b76c639085e23af79d0a8d92be7b/Iron.Man.3.2013.R6.CAM.AUDiO.READNFO.XViDv2.JUSTiCE.part3.rar.html http://rapidgator.net/file/87fff33d846589e43bc5f170b93547c0/Iron.Man.3.2013.R6.CAM.AUDiO.READNFO.XViDv2.JUSTiCE.part5.rar.html http://rapidgator.net/file/4edf1d94184c4b59cb29958743232b21/Iron.Man.3.2013.R6.CAM.AUDiO.READNFO.XViDv2.JUSTiCE.part4.rar.html UPLOADED http://uploaded.net/file/4l4m1prm/Iron.Man.3.2013.R6.CAM.AUDiO.READNFO.XViDv2.JUSTiCE.part1.rar http://uploaded.net/file/jcgox9dm/Iron.Man.3.2013.R6.CAM.AUDiO.READNFO.XViDv2.JUSTiCE.part2.rar http://uploaded.net/file/mlo05ait/Iron.Man.3.2013.R6.CAM.AUDiO.READNFO.XViDv2.JUSTiCE.part3.rar http://uploaded.net/file/jjzp7kdo/Iron.Man.3.2013.R6.CAM.AUDiO.READNFO.XViDv2.JUSTiCE.part4.rar http://uploaded.net/file/b8u7293b/Iron.Man.3.2013.R6.CAM.AUDiO.READNFO.XViDv2.JUSTiCE.part5.rar SECUREUPLOAD http://www.secureupload.eu/6385grd7lohq/Iron.Man.3.2013.R6.CAM.AUDiO.READNFO.XViDv2.JUSTiCE.part1.rar http://www.secureupload.eu/qps3ay7ouqxh/Iron.Man.3.2013.R6.CAM.AUDiO.READNFO.XViDv2.JUSTiCE.part2.rar http://www.secureupload.eu/nukg5nocex6t/Iron.Man.3.2013.R6.CAM.AUDiO.READNFO.XViDv2.JUSTiCE.part3.rar http://www.secureupload.eu/hznjp208iwil/Iron.Man.3.2013.R6.CAM.AUDiO.READNFO.XViDv2.JUSTiCE.part4.rar http://www.secureupload.eu/ufx8aqjxy4q0/Iron.Man.3.2013.R6.CAM.AUDiO.READNFO.XViDv2.JUSTiCE.part5.rar

Iron Man 3 (2013) R6 CAM AUDiO READNFO XViD V2 - JUSTiCE Fast Download


 
 
 
Dear visitor, you went to the site as an unregistered user. We encourage you to register or enter the site under your name.
 
   
 
 (Votes #: 2)
 
 

This site does not store any file on its server.
If you have any doubts about legality of content or you have another suspicions, feel free to Contact US.