Free Full Download Games Softwares Graphics Movies And Music

 
 
Twistys Download » Movies » Underworld Awakening 2012 DvDRip RHINO
Menu
Home Applications
Games Movies
Music TV Shows
Graphics Forums
RSS Sitemap
 
Advanced Search
Last News
Trend
Trend
Friend:
Full Download
Nulled Script Download
Torrent Download

Search In Site

Movies : Underworld Awakening 2012 DvDRip RHINO
 
Underworld Awakening 2012 DVDRIP RHINO

Underworld Awakening 2012 DvDRip RHINO
Size:
700 MB


Genre
Action, Fantasy, Horror
Actors
Kate Beckinsale, Michael Ealy, India Eisley
Plot
When human forces discover the existence of the Vampire and Lycan clans, a war to eradicate both species commences. The vampire warrioress Selene leads the battle against humankind.
Format : AVI
Format/Info : Audio Video Interleave
File size : 701 MiB
Duration : 1h 28mn
Overal bit rate : 1106 Kbps
Movie name : Underworld Awakening 2012 BRRip XViD-sC0rp
Director : TEAM | sC0rp | Releases
Writing application : VirtualDub build 32842/releaseVirtualDubMod 1.5.10.3 | www.virtualdub-fr.org || (build 2550/release)

Video
Format : MPEG-4 Visual
Format profile : Streaming [email protected]
Format settings, BVOP : Yes
Format settings, QPel : No
Format settings, GMC : No warppoints
Format settings, Matrix : Custom
Muxing mode : Packet Bitstream
Codec ID : XVID
Codec ID/Hint : XviD
Duration : 1h 28mn
Bit rate : 969 Kbps
Width : 640 pixels
Height : 272 pixels
Display aspect ratio : 2.35
Frame rate : 23.976 fps
Resolution : 8 bits
Colorimetry : 4:2:0
Scan type : Progressive
Bits/(Pixel*Frame) : 0.232
Stream size : 614 MiB
Writing library : XviD 58

Audio
Format : MPEG Audio
Format version : Version 1
Format profile : Layer 3
Codec ID : 55
Codec ID/Hint : MP3
Duration : 1h 28mn
Bit rate mode : Constant
Bit rate : 128 Kbps
Channel(s) : 2 channels
Sampling rate : 44.1 KHz
Resolution : 16 bits
Stream size : 81.1 MiB
Writing library : LAME3.99.3
Language : undefined

DOWNLOAD:

( Extabit )
http://extabit.com/file/2dubm7o5g870t/Underworld Awakening  {2012} DVDRIP RHINO.rar



Underworld Awakening 2012 DvDRip RHINO Fast Download


 
 
 
Dear visitor, you went to the site as an unregistered user. We encourage you to register or enter the site under your name.
 
   
 
 (Votes #: 6)
 
 

This site does not store any file on its server.
If you have any doubts about legality of content or you have another suspicions, feel free to Contact US.