Free Full Download Games Softwares Graphics Movies And Music

 
 
Twistys Download » Movies » This Means War (2012) BDRip Xvid Ac3-ANALOG
Menu
Home Applications
Games Movies
Music TV Shows
Graphics Forums
RSS Sitemap
 
Advanced Search
Last News
Trend
Trend
Friend:
Full Download
Nulled Script Download
Torrent Download

Search In Site

Movies : This Means War (2012) BDRip Xvid Ac3-ANALOG
 
This Means War 2012 BDRip Xvid Ac3 ANALOG
This Means War 2012 BDRip Xvid Ac3 ANALOG
Complete name : This.Means.War.2012.BDRip.Xvid.Ac3.ANALOG\T.M.W.BDR.ANALOG.avi
Format : AVI
Format/Info : Audio Video Interleave
File size : 1.53 GiB
Duration : 1h 44mn
Overall bit rate : 2 102 Kbps


Video
ID : 0
Format : MPEG-4 Visual
Format profile : Advanced [email protected]
Format settings, BVOP : 2
Format settings, QPel : No
Format settings, GMC : No warppoints
Format settings, Matrix : Default (MPEG)
Muxing mode : Packed bitstream
Codec ID : XVID
Codec ID/Hint : XviD
Duration : 1h 44mn
Bit rate : 1 710 Kbps
Width : 720 pixels
Height : 304 pixels
Display aspect ratio : 2.35:1
Frame rate : 23.976 fps
Color space : YUV
Chroma subsampling : 4:2:0
Bit depth : 8 bits
Scan type : Progressive
Compression mode : Lossy
Bits/(Pixel*Frame) : 0.326
Stream size : 1.24 GiB (81%)
Writing library : XviD 1.2.1 (UTC 2008-12-04)

Audio
ID : 1
Format : AC-3
Format/Info : Audio Coding 3
Mode extension : CM (complete main)
Codec ID : 2000
Duration : 1h 44mn
Bit rate mode : Constant
Bit rate : 384 Kbps
Channel(s) : 6 channels
Channel positions : Front: L C R, Side: L R, LFE
Sampling rate : 48.0 KHz
Bit depth : 16 bits
Compression mode : Lossy
Stream size : 286 MiB (18%)
Alignment : Aligned on interleaves
Interleave, duration : 64 ms (1.53 video frames)
Interleave, preload duration : 192 ms
Title : F1_T3_Audio - English_ANALOG
Subs : Hardcoded englsh where needed
Sample : Yes
Source : Bluray(BD50) HDC THX

http://www.aura4you.com/images/download_icon.gif

http://extabit.com/file/2dvlow3y3fgtg/ThiMeaWar201BDRXviAc3ANA.part4.rar
http://extabit.com/file/2dvlow3y3faf8/ThiMeaWar201BDRXviAc3ANA.part3.rar
http://extabit.com/file/2dvlow3y3f79g/ThiMeaWar201BDRXviAc3ANA.part2.rar
http://extabit.com/file/2dvlow3y3fgs4/ThiMeaWar201BDRXviAc3ANA.part1.rar
Or
http://ul.to/55ry8q66/ThiMeaWar201BDRXviAc3ANA.part3.rar
http://ul.to/b1v6mmzc/ThiMeaWar201BDRXviAc3ANA.part2.rar
http://ul.to/hpdp26hp/ThiMeaWar201BDRXviAc3ANA.part1.rar
http://ul.to/s87ey2ah/ThiMeaWar201BDRXviAc3ANA.part4.rar



This Means War (2012) BDRip Xvid Ac3-ANALOG Fast Download


 
 
 
Dear visitor, you went to the site as an unregistered user. We encourage you to register or enter the site under your name.
 
   
 
 (Votes #: 0)
 
 

This site does not store any file on its server.
If you have any doubts about legality of content or you have another suspicions, feel free to Contact US.