Free Full Download Games Softwares Graphics Movies And Music

 
 
Twistys Download » Movies » The Lucky One (2012) CAM XviD Feel-Free
Menu
Home Applications
Games Movies
Music TV Shows
Graphics Forums
RSS Sitemap
 
Advanced Search
Last News
Trend
Trend
Friend:
Full Download
Nulled Script Download
Torrent Download

Search In Site

Movies : The Lucky One (2012) CAM XviD Feel-Free
 
The Lucky One 2012 Cam XviD Feel-Free
The Lucky One 2012 Cam XviD Feel-Free

A Marine travels to Louisiana after serving three tours in Iraq and searches for the unknown woman he believes was his good luck charm during the war.



Genrerama
Language:English
IMDb:http://www.imdb.com/title/tt1327194/
Source:TNZ/Santanas Thanks!
Encoder:Tony

Format : AVI
Format/Info : Audio Video Interleave
File size : 1.12 GiB
Duration : 1h 37mn
Overall bit rate : 1 653 Kbps

Video
ID : 0
Format : MPEG-4 Visual
Format profile : Advanced [email protected]
Format settings, BVOP : 1
Format settings, QPel : No
Format settings, GMC : No warppoints
Format settings, Matrix : Default (H.263)
Codec ID : XVID
Codec ID/Hint : XviD
Duration : 1h 37mn
Bit rate : 1 451 Kbps
Width : 640 pixels
Height : 272 pixels
Display aspect ratio : 2.35:1
Frame rate : 25.000 fps
Color space : YUV
Chroma subsampling : 4:2:0
Bit depth : 8 bits
Scan type : Progressive
Compression mode : Lossy
Bits/(Pixel*Frame) : 0.333
Stream size : 1 010 MiB (88%)
Writing library : XviD 1.2.1 (UTC 2008-12-04)

Audio
ID : 1
Format : AC-3
Format/Info : Audio Coding 3
Mode extension : CM (complete main)
Codec ID : 2000
Duration : 1h 37mn
Bit rate mode : Constant
Bit rate : 192 Kbps
Channel(s) : 2 channels
Channel positions : Front: L R
Sampling rate : 48.0 KHz
Bit depth : 16 bits
Compression mode : Lossy
Stream size : 134 MiB (12%)
Alignment : Aligned on interleaves
Interleave, duration : 40 ms (1.00 video frame)
Interleave, preload duration : 512 ms
screen
The Lucky One 2012 Cam XviD Feel-Free
The Lucky One 2012 Cam XviD Feel-Free


DOWNLOAD:


http://extabit.com/file/2dvl6g9zgmadv/TheLucOne201CAMXviFeeFre.part1.rar
http://extabit.com/file/2dvl6g9zgm47n/TheLucOne201CAMXviFeeFre.part2.rar
http://extabit.com/file/2dvl6g9zgmaer/TheLucOne201CAMXviFeeFre.part3.rar
Or
http://ul.to/djituk4o/TheLucOne201CAMXviFeeFre.part2.rar
http://ul.to/udkkudow/TheLucOne201CAMXviFeeFre.part1.rar
http://ul.to/jwhjato3/TheLucOne201CAMXviFeeFre.part3.rar




The Lucky One (2012) CAM XviD Feel-Free Fast Download


 
 
 
Dear visitor, you went to the site as an unregistered user. We encourage you to register or enter the site under your name.
 
   
 
 (Votes #: 0)
 
 

This site does not store any file on its server.
If you have any doubts about legality of content or you have another suspicions, feel free to Contact US.