Free Full Download Games Softwares Graphics Movies And Music

 
 
Twistys Download » Movies » Barbie In A Mermaid Tale 2 ( 2012 ) DVDRip XviD-updated
Menu
Home Applications
Games Movies
Music TV Shows
Graphics Forums
RSS Sitemap
 
Advanced Search
Last News
Trend
Trend
Friend:
Full Download
Nulled Script Download
Torrent Download

Search In Site

Movies : Barbie In A Mermaid Tale 2 ( 2012 ) DVDRip XviD-updated
 
http://www.yekmovie16.in/img/Barbie%20in%20a%20Mermaid%20Tale%202.jpg

Barbie In A Mermaid Tale 2 2012 DVDRip XviD_BHRG
INFO:   http://www.imdb.com/title/tt2197823/



File size                        : 695 MiB
Duration                         : 1h 12mn
Overall bit rate                 : 1 333 Kbps

Video
ID                               : 0
Format                           : MPEG-4 Visual
Format profile                   : Advanced [email protected]
Format settings, BVOP            : 2
Format settings, QPel            : No
Format settings, GMC             : No warppoints
Format settings, Matrix          : Default (H.263)
Codec ID                         : XVID
Codec ID/Hint                    : XviD
Duration                         : 1h 12mn
Bit rate                         : 1 199 Kbps
Width                            : 640 pixels
Height                           : 352 pixels
Display aspect ratio             : 16:9
Frame rate                       : 25.000 fps
Color space                      : YUV
Chroma subsampling               : 4:2:0
Bit depth                        : 8 bits
Scan type                        : Progressive
Compression mode                 : Lossy
Bits/(Pixel*Frame)               : 0.213
Stream size                      : 625 MiB (90%)
Writing library                  : XviD 1.2.1 (UTC 2008-12-04)

Audio
ID                               : 1
Format                           : MPEG Audio
Format version                   : Version 1
Format profile                   : Layer 3
Mode                             : Joint stereo
Codec ID                         : 55
Codec ID/Hint                    : MP3
Duration                         : 1h 12mn
Bit rate mode                    : Constant
Bit rate                         : 128 Kbps
Channel(s)                       : 2 channels
Sampling rate                    : 48.0 KHz
Compression mode                 : Lossy
Stream size                      : 66.8 MiB (10%)
Alignment                        : Aligned on interleaves
Interleave, duration             : 160 ms (4.00 video frames)
Interleave, preload duration     : 216 ms
Title                            : Barbie In A Mermaid Tale 2 (2012) DVDRip XviD BBnRG.avi_track_1_
Writing library                  : LAME3.99r
Encoding settings                : -m j -V 4 -q 2 -lowpass 17 -b 128


http://i.imgur.com/jilsw.png

http://ul.to/gzpsc2m6/Barbie In A Mermaid Tale 2 2012 DVDRip XviD-BHRG.rar


Barbie In A Mermaid Tale 2 ( 2012 ) DVDRip XviD-updated Fast Download


 
 
 
Dear visitor, you went to the site as an unregistered user. We encourage you to register or enter the site under your name.
 
   
 
 (Votes #: 0)
 
 

This site does not store any file on its server.
If you have any doubts about legality of content or you have another suspicions, feel free to Contact US.