Free Full Download Games Softwares Graphics Movies And Music

 
 
Twistys Download » Movies » Immortals (2011) R5 XVID AC3-Purple Dragon
Menu
Home Applications
Games Movies
Music TV Shows
Graphics Forums
RSS Sitemap
 
Advanced Search
Last News
Trend
Trend
Friend:
Full Download
Nulled Script Download
Torrent Download

Search In Site

Movies : Immortals (2011) R5 XVID AC3-Purple Dragon
 
Immortals 2011 R5 XVID AC3 Purple Dragon

Immortals 2011 R5 XVID AC3 Purple Dragon
RELEASE NAME........: Immortals 2011 R5 XVID AC3 Purple Dragon
RELEASE DATE........:
DVD DATE............:
THEATRE DATE........: 23 November 2011 (France)
FILE SIZE........... 1.21 GiB
SIZE................. 1.21 GiB
SOURCE............... Voyna bogov_DVD5 THANX
AUDIO...............: Immortals.2011.R5.READNFO.XviD-BiDA BIG THANKS



Video
ID : 0
Format : MPEG-4 Visual
Format profile : Advanced [email protected]
Format settings, BVOP : 2
Format settings, QPel : No
Format settings, GMC : No warppoints
Format settings, Matrix : Default (H.263)
Codec ID : XVID
Codec ID/Hint : XviD
Duration : 1h 45mn
Bit rate : 1 498 Kbps
Width : 720 pixels
Height : 400 pixels
Display aspect ratio : 16:9
Frame rate : 25.000 fps
Color space : YUV
Chroma subsampling : 4:2:0
Bit depth : 8 bits
Scan type : Progressive
Compression mode : Lossy
Bits/(Pixel*Frame) : 0.208
Stream size : 1.11 GiB (92%)
Writing library : XviD 1.2.1 (UTC 2008-12-04)

Audio
ID : 1
Format : MPEG Audio
Format version : Version 1
Format profile : Layer 3
Codec ID : 55
Codec ID/Hint : MP3
Duration : 1h 45mn
Bit rate mode : Constant
Bit rate : 128 Kbps
Channel(s) : 2 channels
Sampling rate : 44.1 KHz
Compression mode : Lossy
Stream size : 97.0 MiB (8%)
Alignment : Split accross interleaves
Interleave, duration : 40 ms (1.00 video frame)
Interleave, preload duration : 500 ms
................................................................................
http://www.imdb.com/title/tt1253864/
PLOT:
Theseus is a mortal man chosen by Zeus to lead the fight against the ruthless King Hyperion, who is on a rampage across Greece to obtain a weapon that can destroy humanity.
CAST:
Henry Cavill ... Theseus
Mickey Rourke ... King Hyperion
Stephen Dorff ... Stavros
Freida Pinto ... Phaedra
Luke Evans ... Zeus
John Hurt ... Old Man
Joseph Morgan ... Lysander
Anne Day-Jones ... Aethra
Greg Bryk ... The Monk
Alan Van Sprang ... Dareios
Peter Stebbings ... Helios
Daniel Sharman ... Ares
Isabel Lucas ... Athena
Kellan Lutz ... Poseidon
Steve Byers ... Heracles

http://i15.fastpic.ru/big/2011/0120/f6/fa55ab0bb9b6af930cd77dc618f010f6.gif

Download :
http://www.filesonic.com/file/dFMjEe5/Immortals.2011.R5.XVID.AC3-Purple.Dragon.2012.01.14.part1.rar
http://www.filesonic.com/file/jTHFZ5b/Immortals.2011.R5.XVID.AC3-Purple.Dragon.2012.01.14.part2.rar
http://www.filesonic.com/file/QX4tKCY/Immortals.2011.R5.XVID.AC3-Purple.Dragon.2012.01.14.part3.rar
http://www.filesonic.com/file/RKZdsDT/Immortals.2011.R5.XVID.AC3-Purple.Dragon.2012.01.14.part4.rar
http://www.filesonic.com/file/b0NHDYs/Immortals.2011.R5.XVID.AC3-Purple.Dragon.2012.01.14.part5.rar


Or
http://ul.to/te3j115f/Immortals.2011.R5.XVID.AC3-Purple.Dragon.2012.01.14.part5.rar
http://ul.to/hxwabb8t/Immortals.2011.R5.XVID.AC3-Purple.Dragon.2012.01.14.part1.rar
http://ul.to/pmltcg6u/Immortals.2011.R5.XVID.AC3-Purple.Dragon.2012.01.14.part2.rar
http://ul.to/u9u8vxce/Immortals.2011.R5.XVID.AC3-Purple.Dragon.2012.01.14.part4.rar
http://ul.to/wiadkao1/Immortals.2011.R5.XVID.AC3-Purple.Dragon.2012.01.14.part3.rar
 
No Password.


Immortals (2011) R5 XVID AC3-Purple Dragon Fast Download


 
 
 
Dear visitor, you went to the site as an unregistered user. We encourage you to register or enter the site under your name.
 
   
 
 (Votes #: 0)
 
 

This site does not store any file on its server.
If you have any doubts about legality of content or you have another suspicions, feel free to Contact US.